lazonga.info - The Largest Bittorent System Login   |    Register
Latest Articles
Most searched
Hot torrents
Movie Torrents
View Torrent Info: The Vanishing (2018) [720p] [YTS] [YIFY]
View Torrent Info: Acts of Violence (2018) [720p] [YTS] [YIFY]
View Torrent Info: Loophole (2019) [720p] [YTS] [YIFY]
View Torrent Info: Summer '03 (2018) [720p] [YTS] [YIFY]
View Torrent Info: American Hangman (2018) [720p] [YTS] [YIFY]
View Torrent Info: The Last Boy (2019) [720p] [YTS] [YIFY]
View Torrent Info: Rust Creek (2018) [720p] [YTS] [YIFY]
View Torrent Info: Constantine City of Demons: The Movie (2018) [720p] [YTS] [YIFY]
View Torrent Info: Jim Button and Luke the Engine Driver (2018) [720p] [YTS] [YIFY]
View Torrent Info: Still (2018) [720p] [YTS] [YIFY]
Hot torrents
TV Torrents
View Torrent Info: vikings.s05e16.hdtv.x264-lucidtv[eztv]
View Torrent Info: The.Big.Bang.Theory.S12E11.HDTV.x264-SVA[eztv]
View Torrent Info: Lethal.Weapon.S03E11.WEB.x264-TBS[eztv]
View Torrent Info: Gotham.S05E01.HDTV.x264-CRAVERS[eztv]
View Torrent Info: The.Gifted.S02E11.WEB.x264-TBS[eztv]
View Torrent Info: The.Rookie.S01E09.HDTV.x264-KILLERS[eztv]
View Torrent Info: The.Blacklist.S06E01.HDTV.x264-KILLERS[eztv]
View Torrent Info: the.orville.s02e02.web.x264-tbs[eztv]
View Torrent Info: Young.Sheldon.S02E11.HDTV.x264-SVA[eztv]
View Torrent Info: Gotham.S05E01.WEB.x264-TBS[eztv]
lazonga.info > Categories > Music torrents > Lossless torrents


Browse Music torrents

Alter Bridge - Live At The Royal Albert Hall - 2018 - (24-96) torrent



Download torrent: Download Alter Bridge - Live At The Royal Albert Hall - 2018 - (24-96) torrent Magnet link Bookmark Torrent: Alter Bridge - Live At The Royal Albert Hall - 2018 - (24-96) Alter Bridge - Live At The Royal Albert Hall - 2018 - (24-96) torrent | if not working, try instead: Magnet Link
Info hash: F27290BB041B404004BC5C3A1FDE32717A52B409
Category: Categories > Music torrents > Lossless torrents
Trackers:
1    View all torrent trackers >
Health:
 seeds: 0 ,  leechers: 0 |  Update >
Torrent language:  
Total Size: 921.90 MB
Torrent status: Added by trusted uploader Added by trusted uploader Trusted Uploader Site Friend Superman Sun
Uploader: Trusted Uploader Site Friend Superman Sun
Torrent added: 2019-01-09 11:29:31
 

Download Alter Bridge - Live At The Royal Albert Hall - 2018 - (24-96) torrent if not working, try downloading torrent using Download Alter Bridge - Live At The Royal Albert Hall - 2018 - (24-96) via Magnet Link




Torrent Description





--------------------------------------------------------------------------------
Analyzed: Alter Bridge / Live At The Royal Albert Hall
--------------------------------------------------------------------------------

DR         Peak         RMS     Duration Track
--------------------------------------------------------------------------------
DR13      -5.63 dB   -21.05 dB      5:11 01-Slip To The Void
DR12      -6.11 dB   -20.26 dB      4:19 02-Addicted To Pain
DR13      -5.42 dB   -20.21 dB      4:00 03-Before Tomorrow Comes
DR13      -5.69 dB   -20.14 dB      4:38 04-The Writing On The Wall
DR12      -6.54 dB   -21.44 dB      6:35 05-Cry Of Achilles
DR13      -6.71 dB   -22.71 dB      5:25 06-In Loving Memory
DR12      -7.62 dB   -21.39 dB      7:51 07-Fortress
DR11      -7.40 dB   -21.11 dB      3:31 08-Ties That Bind
DR12      -7.78 dB   -21.57 dB      5:26 09-The Other Side
DR12      -6.04 dB   -20.70 dB      4:47 10-Brand New Start
DR13      -4.96 dB   -20.03 dB      4:19 11-Ghost Of Days Gone By
DR12      -5.80 dB   -20.45 dB      6:42 12-The Last Hero
DR13      -7.34 dB   -21.81 dB      4:20 13-The End Is Here
DR12      -8.36 dB   -21.72 dB      5:15 14-Words Darker Than Their Wings
DR12      -5.87 dB   -20.16 dB      5:50 15-Waters Rising
DR13      -6.54 dB   -21.19 dB      5:14 16-Lover
DR11      -8.43 dB   -23.60 dB      6:57 17-Wonderful Life & Watch Over You
DR12      -5.62 dB   -21.25 dB      6:46 18-This Side Of Fate
DR13      -5.71 dB   -21.11 dB      5:10 19-Broken Wings
DR13      -5.89 dB   -21.91 dB      9:04 20-Blackbird
DR13      -7.26 dB   -21.41 dB      6:26 21-Open Your Eyes
--------------------------------------------------------------------------------

Number of tracks:  21
Official DR value: DR12

Samplerate:        96000 Hz
Channels:          2
Bits per sample:   24
Bitrate:           1083 kbps
Codec:             FLAC
================================================================================



#KATJohnRambo -> To avoid fakes, ALWAYS check that the torrent was added on lazonga.info by KATJohnRambo

http://lazonga.info/



Download Alter Bridge - Live At The Royal Albert Hall - 2018 - (24-96) torrent


Comments (please add your comment)
No comments



Home - Browse Torrents - Upload Torrent - Stat - Forum - FAQ - Login
lazonga.info is in compliance with copyrights
2006-2018 lazonga.info
SitemapVelvet Feet Scholl Bundle | Blindspot 720p hevc | Strategic Management in the Aviation Industry